Skip to main content

Camper Van Beethoven Live at Bunratty's on 1989-07-31




(I would gladly accept setlist help if anyone know more song titles for these!)

Disc 1 Total: 42:11.07
01. Fayettenam
02. I Wouldn't Live in New York City (If They Gave Me the Whole Dang Town)
03. (Dead End Street?)
04. Hippies & Cops
05. (All I really want to do?)
06. (Monk tune?)
07. Chase The Blues Away
08.
09. Evil Filthy Preacher
10. Zappa Medley (Absolutely Free, Let's Make The Water Turn Black)

Disc 2 Total: 46:56.18
11. Psychedelic Basement
12. Happy New Year
13. Rake jam
14. Eight Miles High
15. The Times They Are A-Changin'
16. Swords And Shields
17. They Can Make It Rain Bombs
18. (Prince of Thieves? Hear Our Plea?)
19. Ballad Of Easy Rider
20. Life's A Gas


Collection CamperVanBeethoven
Band/Artist Camper Van Beethoven
Date July 31, 1989
Venue Bunratty's
Location Boston MA USA

Source Aiwa CM-70 stereo mic > Sony WM-D6c > Maxell XLII-90 MCAS
Lineage MCAS > Sony WM-D6c > Sony SBM-1 (Oade mod) > Audiomedia III PCI card > Powermac G3/266 > Protools 4.1.1 @44.1kHz > AIFF > Audacity 1.2.6a > xACT 1.64 > FLAC level 8
Taped by Harrison Merims
Transferred by TAS aka morst


Notes

Camper Van Chadbourne

Source (original recording by Harrison Merims):
Aiwa CM-70 stereo mic > Sony WM-D6c > Maxell XLII-90 MCAS

Transfer (January 2009 by TAS aka morst):
MCAS > Sony WM-D6c > Sony SBM-1 (Oade mod) > Audiomedia III PCI card > Powermac G3/266 > Protools 4.1.1 @44.1kHz > AIFF > Audacity 1.2.6a > xACT 1.64 > FLAC level 8

SHNTOOL:
length expanded size cdr WAVE problems fmt ratio filename
5:53.27 62332748 B --- -- ---xx CamperVanChadbourne1989-07-31d1t01.flac
2:58.13 31429820 B --- -- ---xx CamperVanChadbourne1989-07-31d1t02.flac
3:34.29 37817852 B --- -- ---xx CamperVanChadbourne1989-07-31d1t03.flac
3:52.58 41061260 B --- -- ---xx CamperVanChadbourne1989-07-31d1t04.flac
3:35.68 38085980 B --- -- ---xx CamperVanChadbourne1989-07-31d1t05.flac
4:16.12 45186668 B --- -- ---xx CamperVanChadbourne1989-07-31d1t06.flac
5:29.41 58132076 B --- -- ---xx CamperVanChadbourne1989-07-31d1t07.flac
4:36.46 48794636 B --- -- ---xx CamperVanChadbourne1989-07-31d1t08.flac
4:05.46 43326236 B --- -- ---xx CamperVanChadbourne1989-07-31d1t09.flac
3:48.42 40318028 B --- -- ---xx CamperVanChadbourne1989-07-31d1t10.flac
3:25.37 36249068 B --- -- ---xx CamperVanChadbourne1989-07-31d2t01.flac
2:46.24 29338892 B --- -- ---xx CamperVanChadbourne1989-07-31d2t02.flac
5:42.18 60371180 B --- -- ---xx CamperVanChadbourne1989-07-31d2t03.flac
4:45.04 50283452 B --- -- ---xx CamperVanChadbourne1989-07-31d2t04.flac
4:16.25 45217244 B --- -- ---xx CamperVanChadbourne1989-07-31d2t05.flac
4:05.65 43370924 B --- -- ---xx CamperVanChadbourne1989-07-31d2t06.flac
4:53.11 51711116 B --- -- ---xx CamperVanChadbourne1989-07-31d2t07.flac
9:40.58 102448460 B --- -- ---xx CamperVanChadbourne1989-07-31d2t08.flac
3:15.60 34539164 B --- -- ---xx CamperVanChadbourne1989-07-31d2t09.flac
4:05.16 43255676 B --- -- ---xx CamperVanChadbourne1989-07-31d2t10.flac
89:07.25 943270480 B 0.5825 (20 files)

Reviews

There are no reviews yet. Be the first one to write a review.
DOWNLOAD OPTIONS
Uploaded by
morst
on 1/23/2009
Views
291
Favorites
2
PEOPLE ALSO FOUND
Camper Van Beethoven
by Camper Van Beethoven
2,657
0
1
( 1 reviews )
Source: Sony ECM-717 > Sharp Minidisc MD-MT190
Camper Van Beethoven
by Camper Van Beethoven
332
0
0
Source: audience > Sony WM-D6c > MCAS
Camper Van Beethoven
by Camper Van Beethoven
135
0
0
Source: soundboard > Sony D5 > TDK MA90 cassette master tape
Camper Van Beethoven
by Camper Van Beethoven
9,934
0
1
( 1 reviews )
Source: Sony ECM-717 > Sharp MD-MT190MD
Camper Van Beethoven
by Camper Van Beethoven
406
0
0
Camper Van Beethoven
by Camper Van Beethoven
13
2
0
Source: AUD > WAV @16/441
Camper Van Beethoven
by Camper Van Beethoven
11,516
1
1
( 1 reviews )
Source: Sony ECM-717 > Sharp Minidisc MD-MT190
Camper Van Beethoven
by Camper Van Beethoven
1,228
1
1
( 1 reviews )
Source: Audience > ? > cassette
Camper Van Beethoven
by Camper Van Beethoven
171
1
0
Source: SBD + AUD mix @24/48
Camper Van Beethoven
by Camper Van Beethoven
49
1
0
Source: SBD + AUD mix @24/48